Enable / Włącz Javascript
 Widok 
 Kategorie 
 Nitro Torrent w sieci 
 Top 10 użytkowników 
 Beowulf 3D(OU) *2007* [mini-HD.1080p.Half.Over-Under.AC3.BluRay.x264-SONDA] [Lektor PL]

Beowulf 3D(OU) *2007* [mini-HD.1080p.Half.Over-Under.AC3.BluRay.x264-SONDA] [Lektor PL]
Kategoria: » » »
Dodane: 03/10/2017
Rozmiar: 3.98 GB
Uploader: gotofile.net❱ Wędrowiec
seed(ów): 0
leecher(ów): 0
Pobrane: 18
Komentarzy: 0
Pobierz Torrent Pobierz Torrent
Pobierz [Magnet] Pobierz [Magnet]

Obserwuj
Raportuj
Film w wersji 3D Over-Under.
Do odtworzenia filmu WYMAGANY odpowiedni sprzęt (TV 3D).
============================================


Kopia mini-HD 1080p = 3,97 GB


gatunek: Animacja,Fantasy,Przygodowy
produkcja: USA
premiera: 23 listopada 2007 (Polska) 5 listopada 2007 (świat)
premiera Bluray 3D: 10 październik 2014
reżyseria: Robert Zemeckis
scenariusz: Roger Avary,Neil Gaiman

http://www.imdb.com/title/tt0442933/
http://www.filmweb.pl/Beowulf


Obsada:

Ray Winstone ... Beowulf
Anthony Hopkins ... Król Hrothgar
Angelina Jolie ... Matka Grendela
John Malkovich ... Unferth
Brendan Gleeson ... Wiglaf
Crispin Glover ... Grendel
Robin Wright ... Królowa Wealhtheow
Alison Lohman ... Ursula

Opis:

W czasach wielkich bohaterów żyje najmężniejszy z nich – Beowulf. Pokonawszy potężnego potwora o imieniu Grendel, Beowulf ściąga na siebie niegasnący gniew jego uwodzicielskiej, a zarazem bezwzględnej matki, która zrobi wszystko, co w jej mocy, aby pomścić syna. Epicka w swoim rozmachu walka, do jakiej doszło, wspominana była później przez wieki, a imię Beowulf zapisało się na zawsze w ludzkiej pamięci.


General
Format                                   : Matroska
Format version                           : Version 2
File size                                : 3.98 GiB
Duration                                 : 1h 54mn
Overall bit rate                         : 4 986 Kbps
Movie name                               : BEOWULF_3D.miniHD.1080p.Bluray3D Rip by Sonda [AT-Team]
Encoded date                             : UTC 2014-10-17 14:57:02
Writing application                      : mkvmerge v5.7.0 ('The Whirlwind') built on Jul  8 2012 20:08:51
Writing library                          : libebml v1.2.3 + libmatroska v1.3.0

Video
ID                                       : 1
Format                                   : AVC
Format/Info                              : Advanced Video Codec
Format profile                           : High@L4.1
Format settings, CABAC                   : Yes
Format settings, ReFrames                : 2 frames
Codec ID                                 : V_MPEG4/ISO/AVC
Duration                                 : 1h 54mn
Bit rate                                 : 4 438 Kbps
Width                                    : 1 920 pixels
Height                                   : 1 080 pixels
Display aspect ratio                     : 2.39:1
Frame rate mode                          : Constant
Frame rate                               : 23.976 fps
Color space                              : YUV
Chroma subsampling                       : 4:2:0
Bit depth                                : 8 bits
Scan type                                : Progressive
Bits/(Pixel*Frame)                       : 0.089
Stream size                              : 3.54 GiB (89%)
Title                                    : Rip by Sonda
Writing library                          : x264 core
Default                                  : Yes
Forced                                   : No
Color primaries                          : BT.709
Transfer characteristics                 : BT.709
Matrix coefficients                      : BT.709

Audio
ID                                       : 2
Format                                   : AC-3
Format/Info                              : Audio Coding 3
Mode extension                           : CM (complete main)
Format settings, Endianness              : Big
Codec ID                                 : A_AC3
Duration                                 : 1h 54mn
Bit rate mode                            : Constant
Bit rate                                 : 448 Kbps
Channel(s)                               : 6 channels
Channel positions                        : Front: L C R, Side: L R, LFE
Sampling rate                            : 48.0 KHz
Bit depth                                : 16 bits
Compression mode                         : Lossy
Stream size                              : 366 MiB (9%)
Title                                    : AC3 5.1 Lektor PL
Language                                 : Polish
Default                                  : Yes
Forced                                   : No

Menu
00:00:00.000                             : en:(01)00:00:00:000
00:05:22.196                             : en:(02)00:05:22:196
00:11:33.109                             : en:(03)00:11:33:109
00:16:56.306                             : en:(04)00:16:56:306
00:21:00.384                             : en:(05)00:21:00:384
00:28:21.491                             : en:(06)00:28:21:491
00:33:44.439                             : en:(07)00:33:44:439
00:37:41.467                             : en:(08)00:37:41:467
00:43:30.816                             : en:(09)00:43:30:816
00:48:42.127                             : en:(10)00:48:42:127
00:52:04.121                             : en:(11)00:52:04:121
00:55:14.811                             : en:(12)00:55:14:811
01:02:08.891                             : en:(13)01:02:08:891
01:08:12.296                             : en:(14)01:08:12:296
01:12:36.727                             : en:(15)01:12:36:727
01:18:50.892                             : en:(16)01:18:50:892
01:23:30.130                             : en:(17)01:23:30:130
01:26:20.758                             : en:(18)01:26:20:758
01:30:49.944                             : en:(19)01:30:49:944
01:33:52.543                             : en:(20)01:33:52:543
01:37:39.687                             : en:(21)01:37:39:687
01:42:22.970                             : en:(22)01:42:22:970
01:45:23.817                             : en:(23)01:45:23:817
01:54:12.595                             : en:(24)01:54:12:595



Source:
A/V-Beowulf 2007 1080p 3D Blu-ray AVC DTS-HD MA 5.1



Dostępne napisy
Brak napisów
Szczegóły torrenta
Tracker http://tracker.aletorrenty.pl:2710/announce
Multitracker [ Pokaż ]
Kategoria: » » » [Zgłoś błąd]
Dodane 03-10-2017
Podziękowali:
0 użytkowników 
Podziękuj!
Pokaż / Ukryj pliki:
Nazwa pliku Rozmiar
BEOWULF_3D.miniHD.1080p(Sonda).mkv 3.98 GB
AT-TEAM old movie.jpg 140.78 KB
big_bd176a.jpg 112.45 KB
AT-TEAM.jpg 36.66 KB
Read iNFO.txt 2.07 KB
Ale Torrenty Team enjoy !.url 0.11 KB
6 plików
Brak komentarzy...