Enable / Włącz Javascript
 Widok 
 Kategorie 
 Nitro Torrent w sieci 
 Top 10 użytkowników 
 Listonosz Pat i wielki świat 3D(OU) - Postman Pat: The Movie *2014* [mini-HD.1080p.Half.Over-Under.DualAudio.AC3.BluRay.x264-SONDA] [Dubbing PL]

Listonosz Pat i wielki świat 3D(OU) - Postman Pat: The Movie *2014* [mini-HD.1080p.Half.Over-Under.DualAudio.AC3.BluRay.x264-SONDA] [Dubbing PL]
Kategoria: » » »
Dodane: 03/10/2017
Rozmiar: 3.92 GB
Uploader: gotofile.net❱ Wędrowiec
seed(ów): 0
leecher(ów): 0
Pobrane: 6
Komentarzy: 0
Pobierz Torrent Pobierz Torrent
Pobierz [Magnet] Pobierz [Magnet]

Obserwuj
Raportuj
Film w wersji 3D Over-Under.
Do odtworzenia filmu WYMAGANY odpowiedni sprzęt (TV 3D).
============================================


Kopia mini-HD 1080p = 3,92 GB


gatunek: Animacja,Familijny
produkcja: Wielka Brytania
premiera: 23 maja 2014 (Polska) 23 maja 2014 (świat)
reżyseria: Mike Disa
scenariusz: Nicole Dubuc

http://www.imdb.com/title/tt2062622/
http://www.filmweb.pl/film?id=646008


Obsada:

Jacek Kopczyński ... Listonosz Pat
Waldemar Barwiński ... Carbunkle
Tomasz Bednarek ... Kuba Powiatowy
Przemysław Stippa ... Wilf
Mieczysław Morański ... Ceo
Anna Apostolakis-Gluzińska ... Sara
Elżbieta Gaertner ... Pani Goggins
Adam Pluciński ... Julian

Opis:

Sympatyczny listonosz Pat z małego spokojnego miasteczka zapragnie wziąć udział w niezwykle popularnym telewizyjnym show "Gwiazdą być!". Czeka go więc wyprawa do wielkiego miasta w zwariowany świat gwiazd i telewizyjnych osobowości. Będzie to dla niego wielka i niebezpieczna przygoda. Na szczęście jak zwykle może liczyć na swoich starych przyjaciół z rodzinnego miasteczka oraz swawolnego kota Jessa, dzięki którym odkryje, że od sławy, kariery i świateł wielkiej metropolii stokroć cenniejsza jest grupa bliskich osób, z którymi nigdy nie można się nudzić.

Screeny:

[Oryginalny obrazek]

[Oryginalny obrazek]

[Oryginalny obrazek]

[Oryginalny obrazek]

[Oryginalny obrazek]



General
Format                                   : Matroska
Format version                           : Version 2
File size                                : 3.92 GiB
Duration                                 : 1h 27mn
Overall bit rate                         : 6 433 Kbps
Movie name                               : Postman Pat: The Movie_3D.miniHD.1080p.Bluray3D [Rip by Sonda AT-Team]
Encoded date                             : UTC 2014-10-28 16:04:11
Writing application                      : mkvmerge v5.7.0 ('The Whirlwind') built on Jul  8 2012 20:08:51
Writing library                          : libebml v1.2.3 + libmatroska v1.3.0

Video
ID                                       : 1
Format                                   : AVC
Format/Info                              : Advanced Video Codec
Format profile                           : High@L4.1
Format settings, CABAC                   : Yes
Format settings, ReFrames                : 2 frames
Codec ID                                 : V_MPEG4/ISO/AVC
Duration                                 : 1h 27mn
Bit rate                                 : 5 409 Kbps
Width                                    : 1 920 pixels
Height                                   : 1 080 pixels
Display aspect ratio                     : 1.85:1
Frame rate mode                          : Constant
Frame rate                               : 23.976 fps
Color space                              : YUV
Chroma subsampling                       : 4:2:0
Bit depth                                : 8 bits
Scan type                                : Progressive
Bits/(Pixel*Frame)                       : 0.109
Stream size                              : 3.30 GiB (84%)
Title                                    : Rip by Sonda
Writing library                          : x264 core
Default                                  : Yes
Forced                                   : No
Color primaries                          : BT.709
Transfer characteristics                 : BT.709
Matrix coefficients                      : BT.709

Audio #1
ID                                       : 2
Format                                   : AC-3
Format/Info                              : Audio Coding 3
Mode extension                           : CM (complete main)
Format settings, Endianness              : Big
Codec ID                                 : A_AC3
Duration                                 : 1h 27mn
Bit rate mode                            : Constant
Bit rate                                 : 448 Kbps
Channel(s)                               : 6 channels
Channel positions                        : Front: L C R, Side: L R, LFE
Sampling rate                            : 48.0 KHz
Bit depth                                : 16 bits
Compression mode                         : Lossy
Delay relative to video                  : 4ms
Stream size                              : 280 MiB (7%)
Title                                    : AC3 5.1 Dubbing PL
Language                                 : Polish
Default                                  : Yes
Forced                                   : Yes

Audio #2
ID                                       : 3
Format                                   : AC-3
Format/Info                              : Audio Coding 3
Mode extension                           : CM (complete main)
Format settings, Endianness              : Big
Codec ID                                 : A_AC3
Duration                                 : 1h 27mn
Bit rate mode                            : Constant
Bit rate                                 : 448 Kbps
Channel(s)                               : 6 channels
Channel positions                        : Front: L C R, Side: L R, LFE
Sampling rate                            : 48.0 KHz
Bit depth                                : 16 bits
Compression mode                         : Lossy
Stream size                              : 280 MiB (7%)
Title                                    : AC3 5.1
Language                                 : English
Default                                  : No
Forced                                   : No

Menu
00:00:00.000                             : en:(01)00:00:00:000
00:07:45.381                             : en:(02)00:07:45:381
00:15:45.611                             : en:(03)00:15:45:611
00:20:58.215                             : en:(04)00:20:58:215
00:28:53.815                             : en:(05)00:28:53:815
00:36:51.000                             : en:(06)00:36:51:000
00:40:29.468                             : en:(07)00:40:29:468
00:45:10.582                             : en:(08)00:45:10:582
00:53:11.646                             : en:(09)00:53:11:646
01:02:30.204                             : en:(10)01:02:30:204
01:11:27.241                             : en:(11)01:11:27:241
01:21:12.200                             : en:(12)01:21:12:200
01:27:17.023                             : en:(13)01:27:17:023


Source:
A/V- Postman Pat: The Movie (2014) 2D, 3D Blu-Ray 1080p
Dubbing PL - DVD





Dostępne napisy
Brak napisów
Szczegóły torrenta
Tracker http://tracker.aletorrenty.pl:2710/announce
Multitracker [ Pokaż ]
Kategoria: » » » [Zgłoś błąd]
Dodane 03-10-2017
Podziękowali:
0 użytkowników 
Podziękuj!
Pokaż / Ukryj pliki:
Nazwa pliku Rozmiar
Postman Pat The Movie_3D.miniHD.1080p(Sonda).mkv 3.92 GB
5JUnGnD.jpg 159.29 KB
AT-TEAM old movie.jpg 140.78 KB
Upload by Sonda [AT-TEAM].jpg 36.66 KB
Read iNFO.txt 2.07 KB
Ale Torrenty Team enjoy !.url 0.11 KB
6 plików
Brak komentarzy...