Enable / Włącz Javascript
 Widok 
 Kategorie 
 Nitro Torrent w sieci 
 Top 10 użytkowników 
 Rodzinka nie z tej Ziemi 3D(OU) - Escape from PLanet Earth 3D *2013* [mini-HD.1080p.Half.Over-Under.AC3.BluRay.x264-SONDA] [Dubbing PL]

Rodzinka nie z tej Ziemi 3D(OU) - Escape from PLanet Earth 3D *2013* [mini-HD.1080p.Half.Over-Under.AC3.BluRay.x264-SONDA] [Dubbing PL]
Kategoria: » » »
Dodane: 03/10/2017
Rozmiar: 3.96 GB
Uploader: gotofile.net❱ Wędrowiec
seed(ów): 0
leecher(ów): 0
Pobrane: 13
Komentarzy: 0
Pobierz Torrent Pobierz Torrent
Pobierz [Magnet] Pobierz [Magnet]

Obserwuj
Raportuj
Film w wersji 3D Over-Under.
Do odtworzenia filmu WYMAGANY odpowiedni sprzęt (TV 3D)
=======================================


Kopia mini-HD 1080p = 3,96 GB


gatunek: Animacja,Komedia,Przygodowy,Sci-Fi
produkcja: Kanada,USA
premiera: 14 lutego 2013 (świat)
reżyseria: Callan Brunker
scenariusz: Cory Edwards,Tony Leech,Bob Barlen,Callan Brunker
http://www.filmweb.pl/film/Rodzinka+nie+z+tej+Ziemi-2013-629579
http://www.imdb.com/title/tt0765446/
http://www.blu-ray.com/movies/Escape-from-Planet-Earth-3D-Blu-ray/66433/


Astronauta Scorch Supernova uchodzi za bohatera narodowego populacji planety Baab. Podczas kolejnej kosmicznej wyprawy jego celem staje się Ziemia, z której odebrano tajemniczy sygnał S.O.S.. Międzyplanetarny podróżnik nie zdaje sobie sprawy, że jej mieszkańcy nie zareagują przyjaźnie na widok przybysza z innej planety. Tkwiącemu po uszy w tarapatach bohaterowi przychodzi z pomocą brat Gary, a gdy on również wpadnie w pułapkę Ziemian, na ratunek ruszy cała rodzinna flotylla Supernovych, która udowodni, że w rodzinie nieziemska wręcz siła!


OBSADA:

Przemysław Wyszyński...Gary
Grzegorz Kwiecień...Skurcz
Paweł Ciołkosz...Doktor
Jacek Król...Szanker
Agnieszka Kunikowska...Kira
Tomasz Borkowski...Pełzior
Monika Węgiel...?ypcia
Tomasz Steciuk...Bing
Izabella Bukowska...Lena
Mateusz Ceran...Kip



General
Format : Matroska
Format version : Version 2
File size : 3.96 GiB
Duration : 1h 29mn
Overall bit rate mode : Variable
Overall bit rate : 6 357 Kbps
Movie name : ESCP_FRM_PLNT_ERTH_3D_BLUEBIRD.Title4.Bluray3D Rip by Sonda [AT-Team]
Encoded date : UTC 2014-06-26 15:03:11
Writing application : mkvmerge v5.7.0 ('The Whirlwind') built on Jul 8 2012 20:08:51
Writing library : libebml v1.2.3 + libmatroska v1.3.0

Video
ID : 1
Format : AVC
Format/Info : Advanced Video Codec
Format profile : High@L4.1
Format settings, CABAC : Yes
Format settings, ReFrames : 2 frames
Codec ID : V_MPEG4/ISO/AVC
Duration : 1h 29mn
Bit rate mode : Variable
Bit rate : 5 782 Kbps
Maximum bit rate : 40.0 Mbps
Width : 1 920 pixels
Height : 1 080 pixels
Display aspect ratio : 2.39:1
Frame rate mode : Constant
Frame rate : 23.976 fps
Color space : YUV
Chroma subsampling : 4:2:0
Bit depth : 8 bits
Scan type : Progressive
Bits/(Pixel*Frame) : 0.116
Stream size : 3.61 GiB (91%)
Title : Rip by Sonda
Default : Yes
Forced : No
Color primaries : BT.709
Transfer characteristics : BT.709
Matrix coefficients : BT.709

Audio
ID : 2
Format : AC-3
Format/Info : Audio Coding 3
Mode extension : CM (complete main)
Format settings, Endianness : Big
Codec ID : A_AC3
Duration : 1h 29mn
Bit rate mode : Constant
Bit rate : 448 Kbps
Channel(s) : 6 channels
Channel positions : Front: L C R, Side: L R, LFE
Sampling rate : 48.0 KHz
Bit depth : 16 bits
Compression mode : Lossy
Delay relative to video : 2s 500ms
Stream size : 286 MiB (7%)
Title : AC3 5.1 dubbing PL
Language : Polish
Default : Yes
Forced : No

Menu
00:00:00.000 : en:(01)00:00:00:000
00:08:21.584 : en:(02)00:08:21:584
00:15:30.888 : en:(03)00:15:30:888
00:25:19.809 : en:(04)00:25:19:809
00:32:23.274 : en:(05)00:32:23:274
00:40:41.522 : en:(06)00:40:41:522
00:49:52.572 : en:(07)00:49:52:572
00:57:21.980 : en:(08)00:57:21:980
01:06:59.015 : en:(09)01:06:59:015
01:13:39.164 : en:(10)01:13:39:164
01:21:54.242 : en:(11)01:21:54:242
01:29:15.266 : en:(12)01:29:15:266

Dostępne napisy
Brak napisów
Szczegóły torrenta
Tracker http://tracker.aletorrenty.pl:2710/announce
Multitracker [ Pokaż ]
Kategoria: » » » [Zgłoś błąd]
Dodane 03-10-2017
Podziękowali:
0 użytkowników 
Podziękuj!
Pokaż / Ukryj pliki:
Nazwa pliku Rozmiar
ESCP_FRM_PLNT_ERTH_3D_BLUEBIRD.miniHD.1080p(Sonda).mkv 3.96 GB
AT-TEAM old movie.jpg 140.78 KB
EscapeFromPlanetEarth3D.jpg 47.50 KB
AT-TEAM.jpg 36.66 KB
Read iNFO.txt 2.07 KB
Ale Torrenty Team enjoy !.url 0.11 KB
6 plików
Brak komentarzy...